Новости партнеров

Алфавитный указатель
А Б В Г Д Е Ж З И К Л М Н О П Р С Т У Ф Х Ц Ч Ш Щ Э Ю Я   |   A B C D E F G H I J K L M N O P Q R S T U V W X Y Z    |    1 2 3 4 5 6 7 8 9 0

Старики-разбойники (1971) HDTVRip-AVC

Старики-разбойники (1971) HDTVRip-AVC


Информация о фильме
Название: Старики-разбойники
Год выхода: 1971
Жанр: Комедия
Режиссер: Эльдар Рязанов
В ролях: Юрий Никулин, Евгений Евстигнеев, Ольга Аросева, Георгий Бурков, Андрей Миронов, Валентина Владимирова, Юрий Белов, Валентина Талызина, Роман Филиппов, Нина Агапова, Готлиб Ронинсон, Георгий Куликов, Лев Дуров

О фильме:
Следователя прокуратуры Мячикова, достигшего пенсионного возраста, пытаются насильно «уйти» с работы, так как на его место есть кандидат, присланный «сверху». Вместе со своим старинным другом, инженером Воробьевым, Мячиков решает организовать преступление, раскрыв которое он сможет доказать свою необходимость и незаменимость…

Комедия
IMDB_RATING : 7.5
ORIGINAL_TITLE : Старики-разбойники
PUBLISHER : Мосфильм
RATING : 7.85

Video
ID : 1
Format : AVC
Format/Info : Advanced Video Codec
Format profile : [email protected]
Format settings, CABAC : Yes
Format settings, ReFrames : 12 frames
Codec ID : V_MPEG4/ISO/AVC
Duration : 1 h 25 min
Bit rate : 2 033 kb/s
Width : 1 020 pixels
Height : 584 pixels
Display aspect ratio : 16:9
Frame rate mode : Constant
Frame rate : 25.000 FPS
Color space : YUV
Chroma subsampling : 4:2:0
Bit depth : 8 bits
Scan type : Progressive
Bits/(Pixel*Frame) : 0.137
Stream size : 1.19 GiB (82%)
Title : Старики-разбойники (1971)
Writing library : x264 core 148 r2721M 72d53ab
Encoding settings : cabac=1 / ref=12 / deblock=1:-3:-3 / analyse=0x3:0x133 / me=umh / subme=11 / psy=1 / psy_rd=1.00:0.10 / mixed_ref=1 / me_range=32 / chroma_me=1 / trellis=2 / 8x8dct=1 / cqm=0 / deadzone=21,11 / fast_pskip=0 / chroma_qp_offset=-3 / threads=5 / lookahead_threads=1 / sliced_threads=0 / nr=0 / decimate=1 / interlaced=0 / bluray_compat=0 / constrained_intra=0 / bframes=11 / b_pyramid=2 / b_adapt=2 / b_bias=0 / direct=3 / weightb=1 / open_gop=0 / weightp=2 / keyint=250 / keyint_min=25 / scenecut=40 / intra_refresh=0 / rc_lookahead=60 / rc=2pass / mbtree=1 / bitrate=2033 / ratetol=1.0 / qcomp=0.70 / qpmin=0 / qpmax=69 / qpstep=4 / cplxblur=20.0 / qblur=0.5 / ip_ratio=1.40 / aq=1:1.00
Default : Yes
Forced : No
Color range : Limited
Color primaries : BT.709
Transfer characteristics : BT.709
Matrix coefficients : BT.709
DURATION : 01:25:54.720000000

Audio
ID : 2
Format : AC-3
Format/Info : Audio Coding 3
Mode extension : CM (complete main)
Format settings, Endianness : Big
Codec ID : A_AC3
Duration : 1 h 25 min
Bit rate mode : Constant
Bit rate : 384 kb/s
Channel(s) : 6 channels
Channel positions : Front: L C R, Side: L R, LFE
Sampling rate : 48.0 kHz
Frame rate : 31.250 FPS (1536 spf)
Bit depth : 32 bits
Compression mode : Lossy
Stream size : 236 MiB (16%)
Title : AC-3_6ch_384
Default : No
Forced : No
DURATION : 01:25:54.696000000

Menu
00:00:00.000 : :Глава 1
00:07:53.280 : :Глава 2
00:16:45.320 : :Глава 3
00:25:58.760 : :Глава 4
00:35:30.480 : :Глава 5
00:44:24.280 : :Глава 6
00:53:56.920 : :Глава 7
01:02:39.520 : :Глава 8
01:10:41.439 : :Глава 9
01:18:03.240 : :Глава 10[/spoiler]

[spoiler=Скриншоты]Старики-разбойники (1971) HDTVRip-AVCСтарики-разбойники (1971) HDTVRip-AVCСтарики-разбойники (1971) HDTVRip-AVCСтарики-разбойники (1971) HDTVRip-AVCСтарики-разбойники (1971) HDTVRip-AVCСтарики-разбойники (1971) HDTVRip-AVCСтарики-разбойники (1971) HDTVRip-AVCСтарики-разбойники (1971) HDTVRip-AVCСтарики-разбойники (1971) HDTVRip-AVC[/spoiler]

РАЗМЕР ФАЙЛА: 1.45 GB

Опубликовано: 29-10-2016, 23:12 Скачано: 586
Релизер: admin
  • Забудь меня, мама! (2016) WEB-DLRip Оригинальное название: Забудь меня, мама!Год: 2016Жанр: МелодрамаРежиссёр: Денис ЕлеонскийПродолжительность:
  • Жених (2016) BDRip-AVC Название: ЖенихГод: 2016Жанр: КомедияРежиссёр: Александр НезлобинПродолжительность: 01:32:30...В ролях: Сергей
  • Десять негритят (1987) HDTVRip-AVC Жанр: Детектив, криминал, триллерРежиссёр: Станислав ГоворухинВ ролях: Владимир Зельдин, Татьяна Друбич, Александр
  • Суперплохие (2016) CAMRip Год: 2016Жанр: комедияРежиссёр: Дмитрий СуворовСтрана: Россия Продолжительность: 01:10:46...В ролях: Данила Якушев,

Панель управления


Добро пожаловать,
Гость

Логин:
Пароль:

Регистрация
Забыли пароль?

Опросы

Я прихожу и качаю:


ЛУЧШИЕ ТОРРЕНТЫ

Новости партнеров